Dibujo De Periodista Mujer, Vestidos Con Botines 2020, Que Significa La M En La Mano, Como Quitar La Picazón En La Parte íntima Dela Mujer, Frutas Verdes Nombres, Oraciones Con Will Afirmativas, Negativas E Interrogativas, Anfibios Para Dibujar, Se Puede Comer Algo Que Tenia Hormigas, El Estómago Y Sus Partes, Don Julio 70 Original, " /> Dibujo De Periodista Mujer, Vestidos Con Botines 2020, Que Significa La M En La Mano, Como Quitar La Picazón En La Parte íntima Dela Mujer, Frutas Verdes Nombres, Oraciones Con Will Afirmativas, Negativas E Interrogativas, Anfibios Para Dibujar, Se Puede Comer Algo Que Tenia Hormigas, El Estómago Y Sus Partes, Don Julio 70 Original, " /> Dibujo De Periodista Mujer, Vestidos Con Botines 2020, Que Significa La M En La Mano, Como Quitar La Picazón En La Parte íntima Dela Mujer, Frutas Verdes Nombres, Oraciones Con Will Afirmativas, Negativas E Interrogativas, Anfibios Para Dibujar, Se Puede Comer Algo Que Tenia Hormigas, El Estómago Y Sus Partes, Don Julio 70 Original, " />

Tu sitio de miedo y terror en la red, todo lo que quieras saber del género de terror lo tendrás aquí.

la era de hielo el origen de los dinosaurios repelis

Sampling rate                            : 48.0 kHz Frame rate                               : 31.250 FPS (1536 SPF) FromStats_Duration                       : 01:20:49.761000000 Compression mode                         : Lossy FromStats_FrameCount                     : 4 00:31:47.572                             : :Chapter 8 2 h 26 min Default                                  : No Default                                  : Yes 2 h 18 min ID                                       : 3 2011. Title                                    : La Era de Hielo 3 El Origen de los Dinosaurios (2009) Full 1080p Latino Format                                   : PGS 00:50:46.335                             : :Chapter 12 01:03:11.288                             : :Chapter 15 Scrat sigue intentando apoderarse de la muy escurridiza bellota (mientras, tal vez, encuentra el verdadero amor); Manny y Ellie esperan el nacimiento de su mini-mamut; Sid, el perezoso, se mete en un buen lío al formar de repente una familia propia tras encontrarse unos huevos de dinosaurio; y Diego, el tigre de dientes de sable, se pregunta si pasar tanto tiempo con sus amigos no le estará volviendo demasiado «blandito». La Cronología De La Era De Hielo Parte 5/7: El Origen De Los Dinosaurios ScratPolis xD. Duration                                 : 1 h 34 min FromStats_BitRate                        : 27580 Language                                 : Spanish 2010. Width                                    : 1 920 pixels Chroma subsampling                       : 4:2:0 Frame rate mode                          : Constant Scrat sigue intentando apoderarse de FromStats_Duration                       : 01:23:21.793000000 dpeliculashdmega@gmail.com. 00:10:38.847                             : :Chapter 3 01:16:00.306                             : :Chapter 18 Duration                                 : 1 h 34 min ID                                       : 6 Duration                                 : 1 h 34 min Statistics Tags Issue                    : mkvmerge v15.0.0 ('Duel with the Devil') 64-bit 2018-03-22 18:16:43 / mkvmerge v15.0.0 ('Duel with the Devil') 64-bit 2018-03-22 18:16:43 / UTC 2018-03-21T02:58:40Z Tercera parte de las aventuras de Diego, Scrat y compañía. Writing library                          : libebml v1.3.5 + libmatroska v1.4.5 / Lavf57.7.2, Video FromStats_FrameCount                     : 1630 Codec ID                                 : A_DTS Muxing mode                              : zlib Statistics Tags Issue                    : mkvmerge v15.0.0 ('Duel with the Devil') 64-bit 2018-03-22 18:16:43 / mkvmerge v15.0.0 ('Duel with the Devil') 64-bit 2018-03-22 18:16:43 / UTC 2018-03-21T02:58:40Z Codec ID                                 : S_HDMV/PGS FromStats_Duration                       : 00:19:49.230000000 Codec ID/Info                            : Picture based subtitle format used on BDs/HD-DVDs La era de hielo 3: El origen de los dinosaurios Pelicula HD (2009) | Descargar por Mega| Tercera parte de las aventuras de Diego, Scrat y compañía. FromStats_StreamSize                     : 74909, Text #3 Codec ID/Info                            : Picture based subtitle format used on BDs/HD-DVDs Sampling rate                            : 48.0 kHz Title : La Era de Hielo 3 El Origen de los Dinosaurios (2009) Full 1080p Latino Writing library : x264 core 148 r2708 86b7198 Encoding settings : cabac=1 / ref=4 / deblock=1:0:0 / analyse=0x3:0x133 / me=esa / subme=9 / psy=1 / psy_rd=1.00:0.00 / mixed_ref=1 / me_range=16 / chroma_me=1 / trellis=2 / 8x8dct=1 / cqm=0 / deadzone=21,11 / fast_pskip=1 / chroma_qp_offset=-2 / … Forced                                   : Yes FromStats_BitRate                        : 38176 2 h 33 min Quizás lo más destacable del filme es el avance que ha experimentado el trabajo visual de animación y el buen uso que sabe dar al 3D. Language                                 : Spanish Bit rate mode                            : Constant FromStats_BitRate                        : 448000 Language                                 : English En medio de los desastres que azotan a Inglaterra, Harry y sus compañeros vuelven a Hogwarts para cursar... 3.9 FromStats_StreamSize                     : 23868911, Menu Format                                   : PGS Format                                   : AVC Format                                   : Matroska Format settings, Endianness              : Big Codec ID                                 : V_MPEG4/ISO/AVC Color space                              : YUV Default                                  : No Cuando... {"handle":"cinemaniahdd","arch":"js","styles":{"a":"000066","b":100,"c":"FFFFFF","d":"FFFFFF","k":"000066","l":"000066","m":"000066","n":"FFFFFF","p":"10.62","q":"000066","r":100,"cnrs":"0.31","fwtickm":1}}, CINEMANIAHD NO ALMACENA NINGUN TIPO MATERIAL con derechos de autor, el material es recolectado de todas fuentes de Internet, Si desea que dicho material sea borrado porfavor contactarnos por email Statistics Tags Issue                    : mkvmerge v15.0.0 ('Duel with the Devil') 64-bit 2018-03-22 18:16:43 / mkvmerge v15.0.0 ('Duel with the Devil') 64-bit 2018-03-22 18:16:43 / UTC 2018-03-21T02:58:40Z Language                                 : Spanish Format                                   : PGS 00:57:03.003                             : :Chapter 13 La segunda parte de la batalla final entre las fuerzas del bien y el mal. Bit rate                                 : 5 607 kb/s 00:41:11.594                             : :Chapter 10 Bit depth                                : 8 bits Default                                  : Yes Statistics Tags Issue                    : mkvmerge v15.0.0 ('Duel with the Devil') 64-bit 2018-03-22 18:16:43 / mkvmerge v15.0.0 ('Duel with the Devil') 64-bit 2018-03-22 18:16:43 / UTC 2018-03-21T02:58:40Z Christopher Robin: Un reencuentro inolvidable, The Amazing Spider-Man 2: El poder de Electro, Star Wars: Episodio V – El imperio contraataca. FromStats_FrameCount                     : 529060 Bit rate                                 : 1 509 kb/s 01:26:50.122                             : :Chapter 20. Forced                                   : No Stream size                              : 1 015 MiB (20%) Encoded date                             : UTC 2018-03-22 18:16:43 / UTC 2018-03-21T02:58:40Z Channel positions                        : Front: L C R, Side: L R, LFE Codec ID                                 : S_HDMV/PGS 2007. FromStats_StreamSize                     : 315940352, Audio #2 Ahora puedes descargar peliculas por los mejores servidores gratis, incluyendo mega hd, podrás disfrutar de las películas hd eso no es todo, lo importante en hd full con opción de películas 1 link mega, Descargar La Era de Hielo 3 El Origen de los Dinosaurios (2009) Full 1080p Latino, Harry Potter y las reliquias de la muerte – Parte II (2011) 4K HDR Latino, Harry Potter y las reliquias de la muerte – Parte I (2010) 4K HDR Latino, Harry Potter y el misterio del príncipe (2009) 4K HDR Latino, Harry Potter y la orden del Fénix (2007) 4K HDR Latino, Harry Potter y el cáliz de fuego (2005) 4K HDR Latino, The Mandalorian (2020) Temporada 2 WEB-DL 1080p Latino, Fear the Walking Dead (2019) Quinta Temporada [AMZN] WEB-DL 1080p Latino – CMHDD, El perfecto Asesino (1994) International Cut 4K UHD HDR Latino. ID                                       : 5 Language                                 : English File size                                : 5.07 GiB La era de hielo 3: El origen de los dinosaurios Los protagonistas de La edad de hielo han vuelto con una nueva aventura desternillante, una torpeza de Sid el perezoso les llevará al corazón de un mundo extraño perdido bajo el hielo y ¡poblado por dinosaurios!Juntos tendrán que enfrentarse a habitantes casi siempre hostiles y a veces estrafalarios. 3.7 01:11:37.043                             : :Chapter 17 El juego nunca ha sido tan... 3.7 2009. Codec ID                                 : S_HDMV/PGS Display aspect ratio                     : 16:9 FromStats_Duration                       : 01:34:03.307000000 Writing library                          : x264 core 148 r2708 86b7198 FromStats_FrameCount                     : 176306 ¿Sabrá convencer a su madre T-Rex que está mejor preparado para criarlos que ella?En el camino, conocerán a una comadreja un poco chiflada de nombre Buck, cazador de dinosaurios obstinado, en el que tendrán que apoyarse para sobrevivir a las trampas del nuevo mundo.Por cierto, Scrat ¿renunciará a su nuez en nombre del verdadero amor? 01:08:05.039                             : :Chapter 16 Forced                                   : No Statistics Tags Issue                    : mkvmerge v15.0.0 ('Duel with the Devil') 64-bit 2018-03-22 18:16:43 / mkvmerge v15.0.0 ('Duel with the Devil') 64-bit 2018-03-22 18:16:43 / UTC 2018-03-21T02:58:40Z Default                                  : No Codec ID                                 : A_AC3 Language                                 : English Format version                           : Version 4 / Version 2 Format/Info                              : Audio Coding 3 Frame rate                               : 93.750 FPS (512 SPF) Mode                                     : 16 Overall bit rate                         : 7 717 kb/s Channel(s)                               : 7 channels / 6 channels Aunque nuestros protagonistas no parecen para nada preparados para enfrentarse a este mundo desconocido…De hecho, Manny y Ellie esperan su primer bebé mamut: como futuro padre, superestresado de por sí, ¿acogerá la paternidad en este entorno poco seguro?Diego, el tigre dientes de sable, cree haber perdido sus instintos de cazador. Bit depth                                : 24 bits FromStats_BitRate                        : 5735363 Format/Info                              : Digital Theater Systems Channel(s)                               : 6 channels Bit rate                                 : 448 kb/s Sid, por su parte, está convencido de haber logrado crear, por fin, su propia familia raptando tres huevos… ¡de dinosaurio! 00:27:29.648                             : :Chapter 7 FromStats_FrameCount                     : 135304 Format/Info                              : Advanced Video Codec Frame rate                               : 23.976 (24000/1001) FPS FromStats_Duration                       : 01:34:03.305000000 00:00:00.000                             : :Chapter 1 Title                                    : Completos-PGS Bit depth                                : 16 bits En el cuarto año en Hogwarts, Harry se enfrenta al mayor de los desafíos y peligros de la saga. Title                                    : Forzados-PGS Statistics Tags Issue                    : mkvmerge v15.0.0 ('Duel with the Devil') 64-bit 2018-03-22 18:16:43 / mkvmerge v15.0.0 ('Duel with the Devil') 64-bit 2018-03-22 18:16:43 / UTC 2018-03-21T02:58:40Z Format                                   : DTS Color range                              : Limited Muxing mode                              : zlib Default                                  : Yes 00:24:07.655                             : :Chapter 6 Format settings                          : CABAC / 4 Ref Frames Mi critica, En la tercera parte de esta saga, ambientada en la era glacial y protagonizada por curiosos animales que crean extraños grupos y familias, la gran novedad es la aparición de los dinosaurios con los que los protagonistas deberán enfrentarse para salvar a Sid, el perezoso. ID                                       : 1 Duration                                 : 1 h 34 min Con el fin de salvar al infortunado Sid, la pandilla se adentra en un misterioso mundo subterráneo, donde tienen algunos enfrentamientos con los dinosaurios, lidian con una enloquecida flora y fauna, y conocen a una comadreja tuerta e implacable cazadora de dinosaurios llamada Buck. Loading... Unsubscribe from ScratPolis xD? Encoding settings                        : cabac=1 / ref=4 / deblock=1:0:0 / analyse=0x3:0x133 / me=esa / subme=9 / psy=1 / psy_rd=1.00:0.00 / mixed_ref=1 / me_range=16 / chroma_me=1 / trellis=2 / 8x8dct=1 / cqm=0 / deadzone=21,11 / fast_pskip=1 / chroma_qp_offset=-2 / threads=34 / lookahead_threads=2 / sliced_threads=0 / nr=0 / decimate=1 / interlaced=0 / bluray_compat=0 / constrained_intra=0 / bframes=3 / b_pyramid=2 / b_adapt=2 / b_bias=0 / direct=3 / weightb=1 / open_gop=0 / weightp=2 / keyint=240 / keyint_min=24 / scenecut=40 / intra_refresh=0 / rc_lookahead=60 / rc=crf / mbtree=1 / crf=20.0 / qcomp=0.60 / qpmin=0 / qpmax=69 / qpstep=4 / vbv_maxrate=62500 / vbv_bufsize=78125 / crf_max=0.0 / nal_hrd=none / filler=0 / ip_ratio=1.40 / aq=1:1.00 00:36:10.669                             : :Chapter 9 Height                                   : 1 080 pixels Bits/(Pixel*Frame)                       : 0.113 Format settings, Endianness              : Big 00:16:05.631                             : :Chapter 4 ¡Sin embargo, es cuando los vuelve a encontrar! FromStats_FrameCount                     : 1632 01:21:05.069                             : :Chapter 19 Title                                    : Completos-PGS Format profile                           : High@L4.1 FromStats_StreamSize                     : 16720101, Text #2 Transfer characteristics                 : BT.709 FromStats_Duration                       : 01:34:01.792000000 Format profile                           : ES Matrix / Core FromStats_StreamSize                     : 4045800439, Audio #1 Forced                                   : No Contrariamente a lo que sucedía en la primera entrega, el filme no funciona demasiado bien a nivel narrativo. Codec ID/Info                            : Picture based subtitle format used on BDs/HD-DVDs Forced                                   : No En esta ocasión, les tocará lidiar con varios dinosaurios. 00:58:06.149                             : :Chapter 14 Scan type                                : Progressive 2 h 37 min Color primaries                          : BT.709 FromStats_BitRate                        : 503 Writing application                      : mkvmerge v15.0.0 ('Duel with the Devil') 64-bit Matrix coefficients                      : BT.709 Harry Potter regresa por quinto año a Hogwarts aún sacudido por la tragedia ocurrida en el Torneo de... 3.0 Delay relative to video                  : 1 s 0 ms Forced                                   : No Bit rate mode                            : Constant Compression mode                         : Lossy En esta ocasión, les tocará lidiar con varios dinosaurios. En general, las situaciones cómicas están mucho menos logradas y probablemente el único público que las encontrará satisfactorias será el infantil. Muxing mode                              : zlib Stream size                              : 3.68 GiB (73%) Format settings, RefFrames               : 4 frames 2 h 10 min 2005. Format                                   : AC-3 Service kind                             : Complete Main Primera parte de la adaptación al cine del último libro de la saga Harry Potter, "Harry Potter y las... 4.1 La era de hielo 3: El origen de los dinosaurios Los protagonistas de La edad de hielo han vuelto con una nueva aventura desternillante, una torpeza de Sid el perezoso les llevará al corazón de un mundo extraño perdido bajo el hielo y ¡poblado por dinosaurios!Juntos tendrán que enfrentarse a habitantes casi siempre hostiles y a veces estrafalarios. Format settings, CABAC                   : Yes ID                                       : 4 ID                                       : 2 Channel positions                        : Front: L C R, Side: L R, Back: C, LFE / Front: L C R, Side: L R, LFE Stream size                              : 301 MiB (6%) 00:20:00.449                             : :Chapter 5 FromStats_StreamSize                     : 1064468720, Text #1 FromStats_BitRate                        : 1508999 Movie name                               : CinemaniaHDD.com Manny, Diego y el resto del grupo deben rescatar a Sid de un mundo subterráneo, después de que él toma unos huevos de dinosaurio. 00:48:29.073                             : :Chapter 11 Cancel … 00:03:10.816                             : :Chapter 2 Pese a que aparecen algunos personajes nuevos que son interesantes, lo que resultaba novedoso empieza a oler a repetición.

Dibujo De Periodista Mujer, Vestidos Con Botines 2020, Que Significa La M En La Mano, Como Quitar La Picazón En La Parte íntima Dela Mujer, Frutas Verdes Nombres, Oraciones Con Will Afirmativas, Negativas E Interrogativas, Anfibios Para Dibujar, Se Puede Comer Algo Que Tenia Hormigas, El Estómago Y Sus Partes, Don Julio 70 Original,